欢迎光临日饭,今天是 注册邀请码公布贴 微信:RiTiao
» 您尚未 登录   注册 | 银行 | 帮助

日饭 -> PV共享 -> MPEG2资源专区 -> [PV]Perfume - PV特辑 (1440x1080i H264 M-ON! HD 2009.12.06).ts(3.28G/快传/PVx10)
妈吉 为娃 日搜 - JPSEEK.COM 广告赞助合作联系QQ:136547666
躺瘦训练营 腔调 广告赞助合作联系QQ:136547666 广告赞助合作联系QQ:136547666

 «  <   1   2   3   4   5   >   »   跳转到第页 ( 第 1 页/共 13 页 )
2012-11-03 19:07 [PV]Perfume - PV特辑 (1440x1080i H264 M-ON! HD 2009.12.06).ts(3.28G/快传/PVx10) [楼 主] | 收藏主题
wangchen

头衔:微博→HDTV_水怪哥微博→HDTV_水怪哥
该用户目前不在线
级别: 总版主
精华: 141
发帖: 38349
威望: 1600 点
银子: 312412 两
宣传贡献值: 1758 点
在线时间:19661(小时)
注册时间:2008-01-17
最后登录:2020-01-07

认证会员

查看作者资料 发送短消息 引用回复这个帖子

[PV]Perfume - PV特辑 (1440x1080i H264 M-ON! HD 2009.12.06).ts(3.28G/快传/PVx10)




1440x1080 M-ON! HD | Audio: AAC | Video Source: TS(Transport Stream(H264)) | 3.28GB


Setlist
# I still love U
# ワンルーム・ディスコ (One Room Disco)
# Dream Fighter
# love the world
# シークレットシークレット (Secret Secret)
# Baby cruising Love
# マカロニ (Macaroni)
# ポリリズム (Polyrhythm)
# チョコレイト・ディスコ (Chocolate Disco)
# エレクトロ・ワールド (Electro World)



QUOTE:
D:\TDDOWNLOAD\[HDTV] Perfume - 2009.12.06 (M-ON! File).ts
  General #16389
    ID : 16389 (0x4005)
    Complete name : D:\TDDOWNLOAD\[HDTV] Perfume - 2009.12.06 (M-ON! File).ts
    Format : MPEG-TS
    File size : 3.29 GiB
    Duration : 52mn 5s
    Start time : UTC 2009-12-07 02:00:05
    End time : UTC 2009-12-07 02:52:05
    Overall bit rate mode : Variable
    Overall bit rate : 9 034 Kbps
    Network name : |公样!塇D姷?
    Original network name : Astra 8
  Video #4099
    ID : 4099 (0x1003)
    Menu ID : 33409 (0x8281)
    Format : AVC
    Format/Info : Advanced Video Codec
    Format profile : Main@L4.0
    Format settings, CABAC : Yes
    Format settings, ReFrames : 4 frames
    Format settings, GOP : M=4, N=28
    Codec ID : 27
    Duration : 52mn 5s
    Bit rate mode : Variable
    Bit rate : 8 443 Kbps
    Maximum bit rate : 20.0 Mbps
    Width : 1 440 pixels
    Height : 1 080 pixels
    Display aspect ratio : 16:9
    Frame rate : 29.970 fps
    Standard : Component
    Color space : YUV
    Chroma subsampling : 4:2:0
    Bit depth : 8 bits
    Scan type : Interlaced
    Scan order : Top Field First
    Bits/(Pixel*Frame) : 0.181
    Stream size : 3.07 GiB (93%)
    Color primaries : BT.709-5, BT.1361, IEC 61966-2-4, SMPTE RP177
    Transfer characteristics : BT.709-5, BT.1361
    Matrix coefficients : BT.709-5, BT.1361, IEC 61966-2-4 709, SMPTE RP177
  Audio #4163
    ID : 4163 (0x1043)
    Menu ID : 33409 (0x8281)
    Format : AAC
    Format/Info : Advanced Audio Codec
    Format version : Version 2
    Format profile : LC
    Muxing mode : ADTS
    Codec ID : 15
    Duration : 52mn 5s
    Bit rate mode : Constant
    Bit rate : 144 Kbps
    Channel(s) : 2 channels
    Channel positions : Front: L R
    Sampling rate : 48.0 KHz
    Compression mode : Lossy
    Delay relative to video : -52ms
    Stream size : 53.7 MiB (2%)



获取最新LIVE资源,请关注日饭LIVE专区微博
http://weibo.com/u/1960287327



感谢cock83提供


下载地址:


本部分内容设定了隐藏,需要回复后才能看到





[此贴售价 5 银子,已有 40 人购买]

若发现会员采用欺骗的方法获取财富,请立刻举报,我们会对会员处以2-N倍的罚金,严重者封掉ID!



[ 此贴被wangchen在2012-11-03 19:14重新编辑 ]

此帖被评分,最近评分记录
银子:200(czlimy)

2012-11-03 19:11 [1 楼]
thomasleader

头衔:SecretCrush_SecretCrush_
该用户目前不在线
级别: 认证日饭
精华: 5
发帖: 900
威望: 150 点
银子: 18146 两
宣传贡献值: 1398 点
在线时间:1316(小时)
注册时间:2011-11-05
最后登录:2018-03-24

认证会员
查看作者资料 发送短消息 引用回复这个帖子



啊,这个就是cock大以前说的那个PV集啊
期待好久了呢,感谢分享,
爱死你们啦~

2012-11-03 19:12 [2 楼]
o_paradise_o

该用户目前不在线
级别: 认证日饭
精华: 0
发帖: 2843
威望: 20 点
银子: 3396 两
宣传贡献值: 0 点
在线时间:6244(小时)
注册时间:2011-12-13
最后登录:2019-08-03

认证会员
查看作者资料 发送短消息 引用回复这个帖子



最近的合集好多。。。。
2012-11-03 19:12 [3 楼]
tianyicl

该用户目前不在线
级别: 认证日饭
精华: 0
发帖: 697
威望: 10 点
银子: 428 两
宣传贡献值: 258 点
在线时间:283(小时)
注册时间:2007-11-22
最后登录:2017-07-07

认证会员
查看作者资料 发送短消息 引用回复这个帖子



电音香水的 歌曲一直很不错 ··· 很喜欢 感谢楼主的分享 ········




已中AKBのウイルス中期
2012-11-03 19:17 [4 楼]
cock83

该用户目前不在线
级别: 六段日饭
精华: 0
发帖: 1561
威望: 110 点
银子: 1954 两
宣传贡献值: 0 点
在线时间:6121(小时)
注册时间:2010-08-10
最后登录:2016-04-15

查看作者资料 发送短消息 引用回复这个帖子



QUOTE:
引用第1楼thomasleader2012-11-03 19:11发表的:
啊,这个就是cock大以前说的那个PV集啊
期待好久了呢,感谢分享,
爱死你们啦~



不用客氣!!好好享用吧
(傳兩次才成功 ~ 昏)

2012-11-03 19:18 [5 楼]
cyywhale



该用户目前不在线
级别: 零段日饭
精华: 0
发帖: 717
威望: 0 点
银子: 42 两
宣传贡献值: 1 点
在线时间:987(小时)
注册时间:2012-09-03
最后登录:2015-07-25

查看作者资料 发送短消息 引用回复这个帖子



one room disco終於有高清版啦
快來收藏~

2012-11-03 19:19 [6 楼]
troywilson



该用户目前不在线
级别: 四段日饭
精华: 0
发帖: 415
威望: 0 点
银子: 106 两
宣传贡献值: 0 点
在线时间:2074(小时)
注册时间:2011-08-28
最后登录:2017-01-14

查看作者资料 发送短消息 引用回复这个帖子



多谢水怪分享,收下这个了
2012-11-03 19:22 [7 楼]
peapeapea



该用户目前不在线
级别: 七段日饭
精华: 0
发帖: 4109
威望: 0 点
银子: 2452 两
宣传贡献值: 0 点
在线时间:489(小时)
注册时间:2008-10-18
最后登录:2018-05-29

查看作者资料 发送短消息 引用回复这个帖子



很喜欢这种专辑哦
收下

2012-11-03 19:34 [8 楼]
cclarisse



该用户目前不在线
级别: 二段日饭
精华: 0
发帖: 91
威望: 0 点
银子: 89 两
宣传贡献值: 0 点
在线时间:10(小时)
注册时间:2012-09-14
最后登录:2016-01-02

查看作者资料 发送短消息 引用回复这个帖子



啊啊啊啊!!!谢谢分享~~~有合集太好了!!!!
2012-11-03 19:58 [9 楼]
liziyumai



该用户目前不在线
级别: 五段日饭
精华: 3
发帖: 984
威望: 100 点
银子: 3410 两
宣传贡献值: 0 点
在线时间:709(小时)
注册时间:2011-10-22
最后登录:2017-05-13

查看作者资料 发送短消息 引用回复这个帖子



感谢分享则个资源
 «  <   1   2   3   4   5   >   »   跳转到第页 ( 第 1 页/共 13 页 )





Copyright (C) 2017
JPFans.COM All Rights Reserved.
沪ICP备05050716号


本站为涉外网站,请大家注意言行,一起塑造良好的中国人新形象!
唯一广告赞助合作联系方式『QQ: 136-547-666 Mail: 77@touchjapan.com TEL: 159-017-01777』