欢迎光临日饭,今天是 注册邀请码公布贴 微信:RiTiao
» 您尚未 登录   注册 | 银行 | 帮助

日饭 -> AKB48 -> [BDREMUX][AKBがいっぱいDISC3][源汁蓝光提取无损档][TS/35M码率/17GB/1080P/115复活]
湖山 方言歌曲 日搜 - JPSEEK.COM 广告赞助合作联系QQ:136547666

 «  <   1   2   3   4   5   >   »   跳转到第页 ( 第 1 页/共 57 页 )
2011-07-21 10:47 [BDREMUX][AKBがいっぱいDISC3][源汁蓝光提取无损档][TS/35M码率/17GB/1080P/115复活] [楼 主] | 收藏主题
xzz_inside

头衔:Mayuki~神推し~Mayuki~神推し~
该用户目前不在线
级别: 版主
精华: 71
发帖: 1181
威望: 2000 点
银子: 53474 两
宣传贡献值: 531 点
在线时间:1906(小时)
注册时间:2008-08-26
最后登录:2017-10-06

认证会员

查看作者资料 发送短消息 引用回复这个帖子

[BDREMUX][AKBがいっぱいDISC3][源汁蓝光提取无损档][TS/35M码率/17GB/1080P/115复活]




终于填完了这个巨坑了,50k上传速度的上传了好几个礼拜了。



BDREMUX传送门 DISC1
http://www.jpfans.com/read.php?tid=73375

BDREMUX传送门 DISC2
http://www.jpfans.com/read.php?tid=73474

BDREMUX传送门 DISC3
http://www.jpfans.com/read.php?tid=73764

BDRIP传送门 三碟全开
http://www.jpfans.com/read.php?tid=73171

DVDRIP传送门 三碟全开
http://www.jpfans.com/read.php?tid=73191

第一张PV专辑漏网之鱼传送门(包含这里没有的10只SONY时期的PV)
http://www.jpfans.com/read.php?tid=73524


蓝光碟直接提取,无压缩档案。
视频原始码率 平均35M
音频原始声源 LPCM


感谢爱饭论坛的前田敦子提供的BDISO

General
ID                     : 1 (0x1)
Complete name               : D:\AKB1080P\D3\[BDREMUX][AKBがいっぱい][26th.チャンスの順番][FULLHD1080P].ts
Format                   : MPEG-TS
Format/Info               : Advanced Video Codec
File size                 : 1.24 GiB
Duration                 : 4mn 33s
Overall bit rate             : 38.8 Mbps
Maximum Overall bit rate       : 35.5 Mbps

Video
ID                     : 4113 (0x1011)
Menu ID                   : 1 (0x1)
Format                   : AVC
Format/Info               : Advanced Video Codec
Format profile             : High@L4.1
Format settings, CABAC         : Yes
Format settings, ReFrames       : 2 frames
Codec ID                 : 27
Duration                 : 4mn 33s
Bit rate mode               : Variable
Bit rate                 : 35.3 Mbps
Width                   : 1 920 pixels
Height                   : 1 080 pixels
Display aspect ratio         : 16:9
Frame rate                 : 29.970 fps
Color space               : YUV
Chroma subsampling           : 4:2:0
Bit depth                 : 8 bits
Scan type                 : Interlaced
Scan order                 : Top Field First
Bits/(Pixel*Frame)           : 0.569
Stream size               : 1.13 GiB (91%)

Audio
ID                     : 4352 (0x1100)
Menu ID                   : 1 (0x1)
Format                   : PCM
Format settings, Endianness     : Big
Format settings, Sign         : Signed
Muxing mode               : Blu-ray
Codec ID                 : 128
Duration                 : 4mn 33s
Bit rate mode               : Constant
Bit rate                 : 1 536 Kbps
Channel(s)                 : 2 channels
Channel positions           : Front: L R
Sampling rate               : 48.0 KHz
Bit depth                 : 16 bits
Delay relative to video       : -30ms
Stream size               : 50.1 MiB (4%)
Language                 : Japanese


应求上传原始档案
小贴士:
该档案由蓝光碟中M2TS重新封装TS。没有做过其他任何重新编码和转化工作,就是源档案。
由于M2TS在硬盘上播放会导致一系列问题,如可能声音不同步等。故而封装为TS。
PS:有经验的朋友应该知道像思路发布的BDREMUX都是TS的,很少有M2TS。所以不要纠结封装格式。

档案码率在34M以上,本人测试i5 2300(4G内存 coreavc)软解都比较吃力。所以如果大家想软解的话基本上没有现价1500块以上的CPU就免了吧。
但是播发的途径不是没有,可以使用GPU(显卡)的硬件解码。推荐播放器PowerDVD。前提是您的电脑支持硬解码(ATI HD3xxx以上,NV GF2xx以上)。但是即使是使用硬件解码,也可能出现马赛克,延迟等各种问题。因为这个档案是蓝光档,它蓝光光盘中的bit存储方式和硬盘中不一样,播放器兼容硬盘播放出现小问题属于正常。
PS2:如果您的电脑配置不高建议不要尝试了,最低播放配置至少是双核的CPU+(ATI HD3xxx或NV GF2xx)


常见问题:
Q1:为啥我打开后电脑直接无响应了
A1:请检查电脑配置,配置过低的请自重。或则检查解码

Q2:为啥我打开后卡,影音不同步
A2:请检查电脑配置,配置过低的请自重。或则检查解码

Q3:为啥我打开后只有图像没有声音
A3:检查解码(可以尝试用PowerDVD),你也可以把档案丢到千千静听里去,如果可以播声音就转化为wav然后同名文件放到同一目录下。

Q4:为啥我打开后没有图像只有声音
A4:检查解码先。



以下D3部分大约17GB
RAR700M分卷,含1%恢复信息(下坏的的童鞋可以自我满血满状态复活)

不能下载的115已全部复活,xzz没有时间编辑顺序,你懂的。
缺什么包跟帖,站内信,加群告知,另告诉我是那个帐号ID的马上补齐。



本部分内容设定了隐藏,需要回复后才能看到





AKB48,SKE48,SDN48,NMB48 入口
http://www.jpfans.com/read.php?tid=70597



[ 此贴被xzz_inside在2012-08-01 23:14重新编辑 ]

此帖被评分,最近评分记录
银子:100(sherngyi)银子:100(板野友美)银子:20(kingofdevils)
银子:20(orochi_2001)





我的AKB48群 183136922(主要正常群)
我的资源密码没有说明都是xzz
我的资源不定期补档遇到过期的可以在群里告诉我,你也可以隔一段时间再看帖子是否有更新。
2011-07-21 10:49 Re:[BDREMUX][AKBがいっぱいDISC3完毕][源汁蓝光提取无损档][TS/34M码率/17GB/FULLHD .. [1 楼]
xzz_inside

头衔:Mayuki~神推し~Mayuki~神推し~
该用户目前不在线
级别: 版主
精华: 71
发帖: 1181
威望: 2000 点
银子: 53474 两
宣传贡献值: 531 点
在线时间:1906(小时)
注册时间:2008-08-26
最后登录:2017-10-06

认证会员
查看作者资料 发送短消息 引用回复这个帖子

Re:[BDREMUX][AKBがいっぱいDISC3完毕][源汁蓝光提取无损档][TS/34M码率/17GB/FULLHD ..

3碟全部更新完毕,
上传了好几个礼拜了。
呼呼~

没有人和我抢沙发么?

此帖被评分,最近评分记录
银子:100(板野友美)





我的AKB48群 183136922(主要正常群)
我的资源密码没有说明都是xzz
我的资源不定期补档遇到过期的可以在群里告诉我,你也可以隔一段时间再看帖子是否有更新。
2011-07-21 10:53 Re:[BDREMUX][AKBがいっぱいDISC3完毕][源汁蓝光提取无损档][TS/34M码率/17GB/FULLHD .. [2 楼]
2190579

该用户目前不在线
级别: 二段日饭
精华: 0
发帖: 51
威望: 0 点
银子: 15 两
宣传贡献值: 0 点
在线时间:77(小时)
注册时间:2011-02-09
最后登录:2014-01-16

查看作者资料 发送短消息 引用回复这个帖子

Re:[BDREMUX][AKBがいっぱいDISC3完毕][源汁蓝光提取无损档][TS/34M码率/17GB/FULLHD ..

非常感谢啊,辛苦了
2011-07-21 11:00 Re:[BDREMUX][AKBがいっぱいDISC3完毕][源汁蓝光提取无损档][TS/34M码率/17GB/FULLHD .. [3 楼]
polyericon



该用户目前不在线
级别: 三段日饭
精华: 0
发帖: 148
威望: 5 点
银子: 105 两
宣传贡献值: 0 点
在线时间:209(小时)
注册时间:2010-07-12
最后登录:2016-07-20

查看作者资料 发送短消息 引用回复这个帖子

Re:[BDREMUX][AKBがいっぱいDISC3完毕][源汁蓝光提取无损档][TS/34M码率/17GB/FULLHD ..

沙那个发被抢了 LZ上传辛苦了感谢您呐
2011-07-21 11:10 Re:[BDREMUX][AKBがいっぱいDISC3完毕][源汁蓝光提取无损档][TS/34M码率/17GB/FULLHD .. [4 楼]
zhrgnm



该用户目前不在线
级别: 认证日饭
精华: 0
发帖: 472
威望: 5 点
银子: 588 两
宣传贡献值: 0 点
在线时间:141(小时)
注册时间:2010-04-06
最后登录:2012-12-03

认证会员
查看作者资料 发送短消息 引用回复这个帖子

Re:[BDREMUX][AKBがいっぱいDISC3完毕][源汁蓝光提取无损档][TS/34M码率/17GB/FULLHD ..

50K上传!。。。拜谢楼主~有爱!

硬盘告急。准备换机子提升。

2011-07-21 11:13 Re:[BDREMUX][AKBがいっぱいDISC3完毕][源汁蓝光提取无损档][TS/34M码率/17GB/FULLHD .. [5 楼]
hjiphuj



该用户目前不在线
级别: 五段日饭
精华: 0
发帖: 1490
威望: 5 点
银子: 2022 两
宣传贡献值: 0 点
在线时间:1410(小时)
注册时间:2011-07-11
最后登录:2017-11-04

查看作者资料 发送短消息 引用回复这个帖子

Re:[BDREMUX][AKBがいっぱいDISC3完毕][源汁蓝光提取无损档][TS/34M码率/17GB/FULLHD ..

喔喔喔~D3也來了!!
多謝分享!!
上傳辛苦了~~

2011-07-21 11:26 Re:[BDREMUX][AKBがいっぱいDISC3完毕][源汁蓝光提取无损档][TS/34M码率/17GB/FULLHD .. [6 楼]
nobel888

该用户目前不在线
级别: 认证日饭
精华: 1
发帖: 1973
威望: 5 点
银子: 6 两
宣传贡献值: 0 点
在线时间:1715(小时)
注册时间:2008-10-04
最后登录:2017-10-22

认证会员
查看作者资料 发送短消息 引用回复这个帖子

Re:[BDREMUX][AKBがいっぱいDISC3完毕][源汁蓝光提取无损档][TS/34M码率/17GB/FULLHD ..

谢谢啊~~等我到大水管的地方再慢慢下~~先mark~
2011-07-21 11:35 Re:[BDREMUX][AKBがいっぱいDISC3完毕][源汁蓝光提取无损档][TS/34M码率/17GB/FULLHD .. [7 楼]
tiana



该用户目前不在线
级别: 三段日饭
精华: 0
发帖: 259
威望: 5 点
银子: 258 两
宣传贡献值: 0 点
在线时间:235(小时)
注册时间:2011-06-25
最后登录:2012-03-20

查看作者资料 发送短消息 引用回复这个帖子

Re:[BDREMUX][AKBがいっぱいDISC3完毕][源汁蓝光提取无损档][TS/34M码率/17GB/FULLHD ..

真的是太感謝你了~~辛苦了
抱著感恩的心載入~

2011-07-21 11:43 Re:[BDREMUX][AKBがいっぱいDISC3完毕][源汁蓝光提取无损档][TS/34M码率/17GB/FULLHD .. [8 楼]
abcdshet12



该用户目前不在线
级别: 零段日饭
精华: 0
发帖: 25
威望: 0 点
银子: -1 两
宣传贡献值: 0 点
在线时间:22(小时)
注册时间:2011-05-01
最后登录:2011-07-23

查看作者资料 发送短消息 引用回复这个帖子

Re:[BDREMUX][AKBがいっぱいDISC3完毕][源汁蓝光提取无损档][TS/34M码率/17GB/FULLHD ..

感謝樓主分享~
馬上來下載

2011-07-21 11:46 Re:[BDREMUX][AKBがいっぱいDISC3完毕][源汁蓝光提取无损档][TS/34M码率/17GB/FULLHD .. [9 楼]
denon_men

该用户目前不在线
级别: 五段日饭
精华: 0
发帖: 1298
威望: 5 点
银子: 1169 两
宣传贡献值: 0 点
在线时间:4274(小时)
注册时间:2011-04-17
最后登录:2017-11-05

查看作者资料 发送短消息 引用回复这个帖子

Re:[BDREMUX][AKBがいっぱいDISC3完毕][源汁蓝光提取无损档][TS/34M码率/17GB/FULLHD ..

期待已久的Disk 3, 感激樓主....
謝謝樓主無私的上傳

 «  <   1   2   3   4   5   >   »   跳转到第页 ( 第 1 页/共 57 页 )





Copyright (C) 2017
JPFans.COM All Rights Reserved.
沪ICP备05050716号


本站为涉外网站,请大家注意言行,一起塑造良好的中国人新形象!
唯一广告赞助合作联系方式『QQ: 136-547-666 Mail: 77@touchjapan.com TEL: 159-017-01777』