欢迎光临日饭,今天是 注册邀请码公布贴 微信:RiTiao
» 您尚未 登录   注册 | 银行 | 帮助

日饭 -> GIZA -> GARNET CROW -> [自抓][EAC]GARNET CROW - 涙のイエスタデー(wav+cue+log+bk)[07/07/04発売]
2011-02-10 21:12 [自抓][EAC]GARNET CROW - 涙のイエスタデー(wav+cue+log+bk)[07/07/04発売] [楼 主] | 收藏主题
wx10010



头衔:热衷Being/GIZA系音乐热衷Being/GIZA系音乐
该用户目前不在线
级别: 版主
精华: 7
发帖: 6358
威望: 100 点
银子: 1134 两
宣传贡献值: 524 点
在线时间:812(小时)
注册时间:2008-05-30
最后登录:2016-06-19


查看作者资料 发送短消息 引用回复这个帖子

[自抓][EAC]GARNET CROW - 涙のイエスタデー(wav+cue+log+bk)[07/07/04発売]

该帖由 wx10010 从 无损音乐区 复制到本区.
by︰wx10010



商品番号: GZCA-4096
メディア: アルバム CD
組枚数: 1
発売日: 2007/07/04
価格: 1260円(税込)

収録曲
1. 涙のイエスタデー
2. Go For It
3. 一番素敵だった日
4. 涙のイエスタデー(Instrumental)

QUOTE:
Exact Audio Copy V0.99 prebeta 5 from 4. May 2009

EAC 抓取日志文件从10. 二月 2011, 9:10

GARNET CROW / 涙のイエスタデー

使用驱动器  :hp      DVD A  DH16ABLH   Adapter: 1  ID: 0

读取模式     : 保护
使用精确流   : 是
废除音频缓冲 : 是
使用 C2 指针 : 否

读取偏移校正                   : 0
读取 Lead-In 和 Lead-Out       : 否
用静音填充抓取中丢失偏移的采样 : 是
去除首尾静音块                 : 否
在 CRC 计算中使用了空样本      : 是
已用接口                       : Win NT 及 2000 本地 Win32 接口

所用输出格式 : 内部 WAV 函数
样本格式     : 44.100 Hz;16 Bit;立体声


被抓轨 CD 的 TOC

     音轨 |   开始   |   长度   | 起始扇区 | 结尾扇区
    --------------------------------------------------
       1  |  0:00.00 |  4:42.10 |       0  |   21159  
       2  |  4:42.10 |  4:50.12 |   21160  |   42921  
       3  |  9:32.22 |  3:30.43 |   42922  |   58714  
       4  | 13:02.65 |  4:39.72 |   58715  |   79711  


范围状态及错误

已选择范围

     文件名 D:\GARNET CROW - 涙のイエスタデー.wav

     峰值电平 99.7 %
     范围质量 100.0 %
     复制 CRC 73CE6F27
     复制成功

没有错误发生

状态报告结尾


115下载,wav+cue+log+bk,bk来源于网络


[此贴售价 2 银子,已有 4 人购买]

若发现会员采用欺骗的方法获取财富,请立刻举报,我们会对会员处以2-N倍的罚金,严重者封掉ID!

此帖被评分,最近评分记录
银子:15(野ブタ。修²)

2011-02-14 14:55 [1 楼]
rayrolla

头衔:圣魔の子๑۩۞۩๑圣魔の子๑۩۞۩๑
该用户目前不在线
级别: 版主
精华: 1
发帖: 4710
威望: 170 点
银子: 2343 两
宣传贡献值: 150 点
在线时间:2847(小时)
注册时间:2009-10-17
最后登录:2014-12-30

认证会员
查看作者资料 发送短消息 引用回复这个帖子



进来沙发支持~~ 有空我也自抓点上来
2011-02-22 21:42 [2 楼]
bradshaw



该用户目前不在线
级别: 二段日饭
精华: 0
发帖: 20
威望: 0 点
银子: 1 两
宣传贡献值: 0 点
在线时间:0(小时)
注册时间:2011-02-21
最后登录:2011-05-14

查看作者资料 发送短消息 引用回复这个帖子



虽然很想买但好像我以前有过存档,就不买了。。。自抓给力是真的
2011-02-28 17:17 [3 楼]
wehiue



该用户目前不在线
级别: 二段日饭
精华: 0
发帖: 66
威望: 0 点
银子: 45 两
宣传贡献值: 0 点
在线时间:26(小时)
注册时间:2009-05-18
最后登录:2016-07-31

查看作者资料 发送短消息 引用回复这个帖子



感谢兔子啦
这里的GC区真的好寒冷啊~~

2014-01-20 19:24 [4 楼]
我爱李晓慧

该用户目前不在线
级别: 一段日饭
精华: 0
发帖: 3
威望: 0 点
银子: 0 两
宣传贡献值: 0 点
在线时间:3(小时)
注册时间:2014-01-18
最后登录:2014-01-22

查看作者资料 发送短消息 引用回复这个帖子



柯南的OP20,很喜欢这首音乐,感谢分享
2014-01-25 22:01 [5 楼]
laojunlei123



该用户目前不在线
级别: 五段日饭
精华: 0
发帖: 816
威望: 0 点
银子: 494 两
宣传贡献值: 0 点
在线时间:296(小时)
注册时间:2013-12-26
最后登录:2017-11-26

查看作者资料 发送短消息 引用回复这个帖子



感謝樓主分享, 收下了!!!
2014-03-08 10:27 [6 楼]
zeuspjw



该用户目前不在线
级别: 一段日饭
精华: 0
发帖: 2
威望: 0 点
银子: 0 两
宣传贡献值: 0 点
在线时间:0(小时)
注册时间:2009-02-16
最后登录:2014-03-08

查看作者资料 发送短消息 引用回复这个帖子



感謝樓主分享~~~~~





Copyright (C) 2017
JPFans.COM All Rights Reserved.
沪ICP备05050716号


本站为涉外网站,请大家注意言行,一起塑造良好的中国人新形象!
唯一广告赞助合作联系方式『QQ: 136-547-666 Mail: 77@touchjapan.com TEL: 159-017-01777』